Что нового

Будущее кинематографа и видео-технологий, как оно вам видется?

Kalisnik

Эволюция
Сообщения
295
Репутация
63
Недавно, совершенно случайно, наткнулся на программный пакет Smooth Video Pack (SVP), позволяющий увеличить плавность видео за счет увеличения кадров. Обалденная вещь! Теперь фильмы в обычном режиме смотреть не позволяет самолюбие. :laugh: Как вы думаете, быть может будущее видео-технологий в увеличении частоты кадров (fps)? Ни чего пока не слышно о работах в данном направлении? :smile:
 

kaster

Мой Аватар, он лучший самый
Команда форума
Глобальный модератор
Сообщения
4 020
Репутация
622
Kalisnik
ну не знаю, не знаю. человеческий глаз не способен воспринимать больше 24 кадров в секунду. все остальные увеличения - помогают только расслаблять глаза, т.к. картинка не держится на сетчатке только за счет фотоинерции, а подпитывается постоянно с источника.
 

joiner

Модератор
Локальный модератор
Сообщения
3 345
Репутация
576
Kaster [?]
все остальные увеличения - помогают только расслаблять глаза,
а разве этого мало? это ведь плюс для комфортного просмотра видео
 

kaster

Мой Аватар, он лучший самый
Команда форума
Глобальный модератор
Сообщения
4 020
Репутация
622
Александр [?]
а разве этого мало?
в каком смысле? смысл моих слов был в том, что это никакое не будущее, а самое что ни на есть настоящее. сейчас снимают в двух форматах, 48 и 60 фпс. ну а то что, обычно в сети, так это такие рипы :smile: по 24, как еще давным давно велел дедушка ленин :smile:
 

Belfigor

Модератор
Локальный модератор
Сообщения
3 595
Репутация
938
Crisis 2 - вот настоящее будущее кинематографа. Интерактивные фильмы.
 

joiner

Модератор
Локальный модератор
Сообщения
3 345
Репутация
576
Kaster [?]
смысл моих слов был в том, что это никакое не будущее, а самое что ни на есть настоящее.
ты имел ввиду эти слова?

[?]
ну не знаю, не знаю.
потому что все остальные идут как обсуждение эффекта, даваемого программой... о настоящем и будущем ни слова :smile:
 

zlo-kazan

Скриптер
Сообщения
374
Репутация
100
Kaster сказал(а):
все остальные увеличения - помогают только расслаблять глаза
Не любит будущее мой нетбук... видео 720p с 60 fps лагает... а вот 1080p 24 fps смотрятся более менее нормально... =)
 

kaster

Мой Аватар, он лучший самый
Команда форума
Глобальный модератор
Сообщения
4 020
Репутация
622
Kalisnik
прикол принят. но справедливости ради отмечу, в том ролике нет 25 фпс ;)
 
Автор
K

Kalisnik

Эволюция
Сообщения
295
Репутация
63
Kaster [?]
но справедливости ради отмечу, в том ролике нет 25 фпс
C:\-----\----\AppData\Local\Opera\Opera\cache\g_0055\opr05I46.tmp
General
Complete name : C:\-----\----\AppData\Local\Opera\Opera\cache\g_0055\opr05I46.tmp
Format : Flash Video
File size : 5.45 MiB
Duration : 50s 440ms
Overall bit rate : 906 Kbps
httphostheader : v19.lscache6.c.youtube.com
Video
Format : AVC
Format/Info : Advanced Video Codec
Format profile : [email protected]
Format settings, CABAC : Yes
Format settings, ReFrames : 3 frames
Format settings, GOP : M=1, N=25
Codec ID : 7
Duration : 50s 480ms
Bit rate : 801 Kbps
Width : 524 pixels
Height : 360 pixels
Display aspect ratio : 3:2
Frame rate mode : Constant
Frame rate : 25.000 fps
Color space : YUV
Chroma subsampling : 4:2:0
Bit depth : 8 bits
Scan type : Progressive
Bits/(Pixel*Frame) : 0.170
Stream size : 4.82 MiB (88%)
Audio
Format : AAC
Format/Info : Advanced Audio Codec
Format profile : LC
Codec ID : 10
Duration : 50s 434ms
Bit rate : 96.7 Kbps
Channel(s) : 2 channels
Channel positions : Front: L R
Sampling rate : 44.1 KHz
Compression mode : Lossy
Stream size : 595 KiB (11%)
 

kaster

Мой Аватар, он лучший самый
Команда форума
Глобальный модератор
Сообщения
4 020
Репутация
622
Kalisnik
тогда предположу, что та надпись длится дольше чем 1 кадр. я к тому, что в любом случае, глаз не должен был заметить столь быстрой смены кадров. ну, более или менее :smile:
 
Автор
K

Kalisnik

Эволюция
Сообщения
295
Репутация
63
Kaster [?]
тогда предположу, что та надпись длится дольше чем 1 кадр. я к тому, что в любом случае, глаз не должен был заметить столь быстрой смены кадров. ну, более или менее
;D Я делал покадровый просмотр ролика, там ровно 25-ть кадров. )) Глаз человека способен воспринимать и намного больше 25-и кадров. :smile: Причины? Да, у глаза есть инертность светоощущения. Причем их две: реальная - используется в кинематографе. И обратная: наступает после реальной с изменением цветов на противоположные. Это есть, но ни кто почему-то не упомянул, что реакция глаза на возникновение нового раздражителя очень мала! Таким образом, если на остаточные образы после первого раздражителя, наложить новый раздражитель - они перекроются новым. Потму что остаточные образы много слабее образов от непосредственно самого раздражителя, - и сила их уменьшается со временем в прогрессии. Именно это вызывает эффект мерцания при низкой Hz монитора или телевизора. :smile:

P.S. И та вставка про 25-й кадр, занимает в этом ролике всего один кадр.
 
Автор темы Похожие темы Форум Ответы Дата
madmasles Общение 38
Viktor1703 Общение 13
Верх